<?xml version="1.0" standalone="no"?>
<!DOCTYPE svg PUBLIC "-//W3C//DTD SVG 1.1//EN" "http://www.w3.org/Graphics/SVG/1.1/DTD/svg11.dtd" >
<svg xmlns="http://www.w3.org/2000/svg">
<metadata>Generated by IcoMoon</metadata>
<defs>
<font id="icomoon-new" horiz-adv-x="1024">
<font-face units-per-em="1024" ascent="960" descent="-64" />
<missing-glyph horiz-adv-x="1024" />
<glyph unicode="&#x20;" horiz-adv-x="512" d="" />
<glyph unicode="&#xe900;" glyph-name="chevron-down" d="M504.123 382.031l393.846 393.846 110.277-110.277-504.123-504.123-504.123 504.123 110.277 110.277 393.846-393.846z" />
<glyph unicode="&#xe901;" glyph-name="arrow-right" d="M780.796 524.799l-345.596 345.596 89.598 89.598 499.193-499.193-499.193-499.193-89.598 89.598 345.596 345.596h-780.79v127.998h780.79z" />
<glyph unicode="&#xe902;" glyph-name="burger" d="M0 119.467h1024v-113.778h-1024v113.778zM341.333 517.689h682.667v-113.778h-682.667v113.778zM0 915.911h1024v-113.778h-1024v113.778z" />
<glyph unicode="&#xe903;" glyph-name="chevron-right" d="M590.769 468.677l-393.846 393.846 110.277 110.277 504.123-504.123-504.123-504.123-110.277 118.154 393.846 385.969z" />
<glyph unicode="&#xe904;" glyph-name="facebook" horiz-adv-x="538" d="M358.4 384h128l51.2 204.8h-179.2v102.4c0 51.2 0 102.4 102.4 102.4h76.8v174.080c-15.36 0-81.92 5.12-148.48 5.12-138.24 0-235.52-87.040-235.52-240.64v-143.36h-153.6v-204.8h153.6v-435.2h204.8v435.2z" />
<glyph unicode="&#xe905;" glyph-name="linkedin" d="M555.116 557.811c91.621 161.684 468.884 177.853 468.884-156.295v-425.768h-210.189v355.705c0 215.579-258.695 199.411-258.695 0v-355.705h-210.189v673.684h215.579l-5.389-91.621zM220.968-24.253h-215.579v673.684h215.579v-673.684zM107.789 730.274c-59.284 0-107.789 48.505-107.789 107.789s48.505 107.789 107.789 107.789c59.284 0 107.789-48.505 107.789-107.789s-48.505-107.789-107.789-107.789z" />
<glyph unicode="&#xe906;" glyph-name="triange" d="M880.64 426.667l-723.627-477.867c-13.653-13.653-34.133-6.827-47.787 6.827-6.827 6.827-6.827 13.653-6.827 20.48v962.56c0 20.48 13.653 34.133 34.133 34.133 6.827 0 13.653 0 20.48-6.827l723.627-484.693c13.653-13.653 20.48-34.133 6.827-47.787 0 0-6.827 0-6.827-6.827z" />
<glyph unicode="&#xe907;" glyph-name="twitter" d="M1044.48 793.6c-40.96-15.36-81.92-30.72-122.88-35.84 46.080 25.6 76.8 66.56 92.16 117.76-40.96-25.6-87.040-40.96-138.24-51.2-81.92 87.040-215.040 92.16-302.080 10.24-56.32-51.2-81.92-133.12-61.44-204.8-168.96 10.24-332.8 92.16-440.32 225.28-20.48-30.72-25.6-66.56-25.6-107.52 0-76.8 35.84-138.24 97.28-179.2-40.96 5.12-71.68 10.24-102.4 30.72v-5.12c0-102.4 71.68-189.44 174.080-209.92-30.72-10.24-66.56-10.24-97.28-5.12 25.6-87.040 107.52-148.48 199.68-148.48-92.16-71.68-204.8-102.4-317.44-87.040 97.28-61.44 209.92-97.28 327.68-97.28 394.24 0 609.28 327.68 609.28 609.28 0 10.24 0 20.48 0 25.6 40.96 35.84 76.8 71.68 107.52 112.64v0z" />
<glyph unicode="&#xe908;" glyph-name="quote" d="M574.288 382.239c0 203.771 141.081 386.437 346.275 476.774l51.256-80.211c-191.484-105.071-228.916-241.374-243.877-327.331 30.833 16.156 71.223 21.845 110.76 18.090 104.305-9.813 185.283-96.941 185.283-202.983 0-0.058 0-0.114 0-0.172v0.009c0-112.581-89.996-203.828-200.984-203.828-62.121 0.651-117.998 26.851-157.72 68.572l-0.086 0.091c-59.163 63.714-90.906 135.165-90.906 250.988zM0.008 382.239c0 203.715 141.081 386.437 346.275 476.774l51.313-80.211c-191.54-105.128-228.972-241.431-243.991-327.388 30.833 16.156 71.223 21.845 110.817 18.090 104.279-9.84 185.226-96.956 185.226-202.977 0-0.059 0-0.118 0-0.177v0.009c0.057-112.524-89.939-203.771-200.927-203.771-62.121 0.651-117.998 26.851-157.72 68.572l-0.086 0.091c-59.163 63.714-90.906 135.165-90.906 250.988z" />
<glyph unicode="&#xe909;" glyph-name="arrow-down" d="M577.641 185.105l354.462 354.462 91.897-91.897-512-512-512 512 91.897 91.897 354.462-354.462v800.821h131.282v-800.821z" />
<glyph unicode="&#xe90a;" glyph-name="arrow-up" d="M575.999 729.599l345.596-345.596 89.598 89.598-499.193 499.193-499.193-499.193 89.598-89.598 345.596 345.596v-780.79h127.998v780.79z" />
<glyph unicode="&#xe90b;" glyph-name="arrow-left" d="M243.209 524.799l345.596 345.596-89.598 89.598-499.193-499.193 499.193-499.193 89.598 89.598-345.596 345.596h780.79v127.998h-780.79z" />
<glyph unicode="&#xe90c;" glyph-name="chevron-left" d="M433.231 468.677l393.846 393.846-110.277 110.277-504.123-504.123 504.123-504.123 110.277 118.154-393.846 385.969z" />
<glyph unicode="&#xe90d;" glyph-name="chevron-up" d="M504.123 539.569l-393.846-393.846-110.277 110.277 504.123 504.123 504.123-504.123-118.154-110.277-385.969 393.846z" />
<glyph unicode="&#xe90e;" glyph-name="close" d="M512 546.118l-426.65 426.65-85.318-85.318 426.65-426.65-426.65-426.65 85.318-85.318 426.65 426.65 426.65-426.65 85.318 85.318-426.65 426.65 426.65 426.65-85.318 85.318-426.65-426.65z" />
<glyph unicode="&#xe90f;" glyph-name="minus" d="M0.036 512.663h1023.928v-171.988h-1023.928v171.988z" />
<glyph unicode="&#xe910;" glyph-name="plus" d="M1023.981 354.509h-439.823v-439.823h-144.317v439.823h-439.823v144.317h439.823v439.823h144.317v-439.823h439.823v-144.317z" />
<glyph unicode="&#xe911;" glyph-name="pause" d="M659.75 938.648h292.070v-1023.963h-292.070v1023.963zM72.174-85.314v1023.963h292.070v-1023.963h-292.070z" />
<glyph unicode="&#xe91e;" glyph-name="search2" d="M404.271 906.086c0.122 0 0.266 0 0.41 0 193.243 0 349.898-156.654 349.898-349.898 0-0.144 0-0.288 0-0.432v0.022c0-0.137 0-0.299 0-0.461 0-193.243-156.654-349.898-349.898-349.898-0.144 0-0.288 0-0.432 0h0.022c-0.137 0-0.299 0-0.461 0-193.243 0-349.898 156.654-349.898 349.898 0 0.144 0 0.288 0 0.432v-0.022c0 0.137 0 0.299 0 0.461 0 193.243 156.654 349.898 349.898 349.898 0.162 0 0.324 0 0.486 0h-0.025zM404.271 960c-223.025 0-404.271-181.246-404.271-404.271 0-222.923 181.246-404.22 404.271-404.22 101.733 0 194.558 37.939 265.725 100.197l308.221-307.811c4.835-4.876 11.537-7.895 18.944-7.895s14.109 3.019 18.942 7.893l0.002 0.002c4.876 4.835 7.895 11.537 7.895 18.944s-3.019 14.109-7.893 18.942l-307.813 307.865c62.217 70.5 100.198 163.673 100.198 265.716 0 0.129 0 0.259 0 0.388v-0.021c0 223.025-181.246 404.271-404.22 404.271z" />
<glyph unicode="&#xe924;" glyph-name="tick" d="M512-64c-282.747 0-512 229.254-512 512s229.254 512 512 512c282.747 0 512-229.254 512-512s-229.254-512-512-512zM512 887.404c-240.716 0-435.583-194.866-435.583-435.583s194.866-435.583 435.583-435.583c240.716 0 435.583 194.866 435.583 435.583s-194.866 435.583-435.583 435.583zM420.298 222.567l-194.866 194.866 53.492 53.492 141.373-141.373 286.567 286.567 53.492-53.492z" />
</font>
</defs>
</svg>
